飘花资源网

今日最新电影今日最新电视剧近一周最新电影最新电影大片

     最新电影下载就上飘花网 www.piaohua.com

当前位置:首页>剧情片>>冰雪奇缘/白雪皇后/魔雪奇缘下载页面

冰雪奇缘/白雪皇后/魔雪奇缘DVDSCR中文

冰雪奇缘/白雪皇后/魔雪奇缘
片名:冰雪奇缘/白雪皇后/魔雪奇缘
发布时间:2014-01-16
在线观看:冰雪奇缘在线观看
冰雪奇缘/白雪皇后/魔雪奇缘迅雷下载地址和剧情:
下载
冰雪奇缘/白雪皇后/魔雪奇缘下载地址 请见页面最底部

◎译  名 冰雪奇缘/白雪皇后/冰雪皇后/冰雪奇缘/冰雪大冒险/魔雪奇缘(港)
◎片  名 Frozen   
◎年  代 2013
◎国  家 美国
◎类  别 动画/冒险/喜剧/家庭/奇幻
◎语  言 英语
◎字  幕 中文
◎IMDB评分  8.1/10 from 7,037 users             
◎IMDB链接  http://www.imdb.com/title/tt2294629
◎文件格式 x264 + AC3
◎视频尺寸 720 x 320
◎文件大小 1.72GB
◎片  长 100min
◎导  演 克里斯·巴克 Chris Buck
◎主  演 克里斯汀·贝尔 Kristen Bell  ….安娜 Anna (voice)
伊迪娜·门泽尔 Idina Menzel  ….艾莎 Snow Queen (voice)
乔纳森·格罗夫 Jonathan Groff  ….克里斯托夫 Kristoff (voice)
乔什·盖德 Josh Gad  ….奥拉夫 Olaf (voice)
圣蒂诺·方塔纳 Santino Fontana  ….汉斯 Prince Hans (voice)

◎简  介 

        《Frozen》讲述一个诅咒令王国被冰天雪地永久覆盖,乐观无畏的安娜(由克里斯汀·贝尔配音)和一个大胆的山民克里斯托弗以及陪伴他左右的驯鹿斯文组队出发
,遭遇了喜马拉雅山般的极端气候、神秘的生物与无处不在的魔法,不但为了寻到安娜的姐姐——冰雪皇后埃尔莎(由埃蒂纳·曼泽尔配音),更希望能破除冰封魔咒,拯救王国
免遭灭顶之灾。

      Format : Matroska
      File size : 1.72 GiB
      Duration : 1h 40mn
      Overall bit rate : 2 444 Kbps
      Encoded date : UTC 2010-02-22 21:41:31
      Writing application : mkvmerge v5.9.0 ('On The Loose') built on Dec  9 2012 15:37:01
      Writing library : libebml v1.3.0 + libmatroska v1.4.0
   Video #1
      ID : 1
      Format : AVC
      Format/Info : Advanced Video Codec
      Format profile : High@L3.1
      Format settings, CABAC : Yes
      Format settings, ReFrames : 4 frames
      Muxing mode : Container profile=Unknown@3.1
      Codec ID : V_MPEG4/ISO/AVC
      Duration : 1h 40mn
      Bit rate : 1 947 Kbps
      Nominal bit rate : 2 000 Kbps
      Width : 720 pixels
      Height : 320 pixels
      Display aspect ratio : 2.25:1
      Frame rate : 23.976 fps
      Resolution : 8 bits
      Colorimetry : 4:2:0
      Scan type : Progressive
      Bits/(Pixel*Frame) : 0.353
      Stream size : 1.37 GiB (80%)
      Writing library : x264 core 116 r2074 2641b9e
   Audio #2
      ID : 2
      Format : AC-3
      Format/Info : Audio Coding 3
      Codec ID : A_AC3
      Duration : 1h 40mn
      Bit rate mode : Constant
      Bit rate : 448 Kbps
      Channel(s) : 6 channels
      Channel positions : Front: L C R, Surround: L R, LFE
      Sampling rate : 48.0 KHz
      Video delay : 31ms
      Stream size : 323 MiB (18%)
电影截图:



[下载地址]:        

 

手机电影下载:http://www.8edy.com
ftp://www:piaohua.com@dy44.piaohua.com:7715/飘花电影piaohua.com魔雪奇缘DVDSCR中文.mkv
喜欢看冰雪奇缘/白雪皇后/魔雪奇缘电影的你也许还喜欢看:
最新电影下载【请一定要用(迅雷7)】下载额!安装完迅雷后-请重新刷新页面_下载不了电影__请看这里
剧情片下载排行
剧情片猜你喜欢看
广告商
2006-2010 飘花免费 电影下载站 www.piaohua.com. All Rights Reserved 电影下载网站 免费就在飘花网
下载电影就来飘花电影网,本站资源均为网络免费资源搜索机器人自动搜索的结果,本站只提供最新电影下载,并不存放任何资源。
冰雪奇缘/白雪皇后/魔雪奇缘下载所有视频版权归原权利人,下载者请个人拥有切勿传播!我们强烈建议所有影视爱好者购买正版音像制品!
本站拒绝一切非法,淫秽电影,欢迎大家监督 有问题可联系管理员: